<?xml version="1.0" standalone="no"?>
<!DOCTYPE svg PUBLIC "-//W3C//DTD SVG 1.1//EN" "http://www.w3.org/Graphics/SVG/1.1/DTD/svg11.dtd" >
<svg xmlns="http://www.w3.org/2000/svg">
<metadata></metadata>
<defs>
<font id="fira_sans_otbold" horiz-adv-x="1062" >
<font-face units-per-em="2048" ascent="1638" descent="-410" />
<missing-glyph horiz-adv-x="483" />
<glyph horiz-adv-x="0" />
<glyph horiz-adv-x="0" />
<glyph horiz-adv-x="682" />
<glyph unicode="&#xd;" horiz-adv-x="483" />
<glyph unicode=" "  horiz-adv-x="483" />
<glyph unicode="&#x09;" horiz-adv-x="483" />
<glyph unicode="&#xa0;" horiz-adv-x="483" />
<glyph unicode="!" horiz-adv-x="509" d="M70 152q0 77 54 131.5t130 54.5q78 0 132 -54.5t54 -131.5t-54 -132t-132 -55q-76 0 -130 55t-54 132zM80 1419h348l-41 -895h-264z" />
<glyph unicode="&#x22;" horiz-adv-x="1050" d="M117 1419h297v-571h-226zM532 1419h295v-571h-223z" />
<glyph unicode="#" horiz-adv-x="1128" d="M23 295v215h151l49 383h-129v215h158l37 276h270l-37 -276h193l37 276h272l-39 -276h123v-215h-152l-49 -383h127v-215h-155l-39 -295h-271l39 295h-192l-39 -295h-271l37 295h-120zM444 510h193l49 383h-192z" />
<glyph unicode="$" horiz-adv-x="1167" d="M31 172l170 190q159 -143 362 -143q103 0 164 44t61 118q0 71 -52 111t-201 86q-230 73 -329.5 172t-99.5 249q0 156 103 259t272 133v311h238v-303q232 -23 391 -176l-158 -179q-134 117 -305 117q-91 0 -144.5 -33.5t-53.5 -95.5q0 -61 54.5 -99.5t217.5 -92.5 q106 -34 178 -70t127 -86.5t81 -118.5t26 -157q0 -172 -108.5 -285.5t-305.5 -142.5v-310h-240v303q-281 29 -448 199z" />
<glyph unicode="%" horiz-adv-x="1779" d="M82 1044q0 166 103.5 267.5t260.5 101.5t261 -101.5t104 -267.5t-104 -267t-261 -101t-260.5 101t-103.5 267zM313 1044q0 -47 11 -84t42 -63.5t80 -26.5t80 26.5t41.5 63t10.5 84.5t-10.5 84.5t-41.5 63.5t-80 27q-37 0 -64 -15t-41.5 -41t-21 -55t-6.5 -64zM317 45 l949 1428l202 -125l-950 -1428zM967 334q0 165 104.5 266.5t261.5 101.5t261 -101t104 -267q0 -167 -104 -268t-261 -101t-261.5 101t-104.5 268zM1200 334q0 -47 11 -84t42 -63.5t80 -26.5q129 0 129 174q0 172 -129 172q-72 0 -102.5 -49t-30.5 -123z" />
<glyph unicode="&#x26;" horiz-adv-x="1591" d="M94 369q0 120 63.5 210.5t202.5 184.5q-113 108 -157.5 183t-44.5 169q0 70 27.5 130.5t80 107.5t139 74.5t195.5 27.5q205 0 324.5 -94t119.5 -238q0 -63 -19 -117.5t-57 -101t-83.5 -85t-108.5 -79.5l275 -264q58 111 102 297l272 -80q-75 -225 -190 -387l332 -307 h-396l-127 117q-191 -152 -442 -152q-236 0 -372 109t-136 295zM438 391q0 -91 55 -142.5t156 -51.5q129 0 230 75l-330 316q-111 -84 -111 -197zM473 1110q0 -50 26 -92.5t95 -108.5q71 49 104 97.5t33 109.5q0 59 -34 94t-93 35q-63 0 -97 -35t-34 -100z" />
<glyph unicode="'" horiz-adv-x="634" d="M117 1419h297v-571h-226z" />
<glyph unicode="(" horiz-adv-x="665" d="M37 717q0 142 21.5 270.5t52.5 224.5t86.5 199.5t103 175t121.5 170.5l209 -141q-144 -199 -204 -406.5t-60 -492.5t60 -492.5t204 -406.5l-209 -142q-74 99 -121.5 170.5t-103 175t-86.5 200t-52.5 225t-21.5 270.5z" />
<glyph unicode=")" horiz-adv-x="665" d="M35 -182q144 199 204 406.5t60 492.5t-60 492.5t-204 406.5l209 141q74 -99 121.5 -170.5t103 -175t86.5 -199.5t52.5 -224.5t21.5 -270.5t-21.5 -270.5t-52.5 -225t-86.5 -200t-103 -175t-121.5 -170.5z" />
<glyph unicode="*" horiz-adv-x="907" d="M18 1102l82 258l258 -125l-45 287h281l-45 -289l258 127l84 -258l-283 -49l207 -203l-225 -164l-137 254l-131 -256l-226 164l203 207z" />
<glyph unicode="+" d="M86 524v254h309v320h273v-320h309v-254h-309v-319h-273v319h-309z" />
<glyph unicode="," horiz-adv-x="509" d="M63 -365l87 363q-80 55 -80 156q0 77 53 130.5t131 53.5q79 0 132.5 -54t53.5 -132q0 -44 -14.5 -91.5t-50.5 -128.5l-129 -297h-183z" />
<glyph unicode="-" horiz-adv-x="835" d="M90 514v254h655v-254h-655z" />
<glyph unicode="." horiz-adv-x="509" d="M70 152q0 77 54 131.5t130 54.5q78 0 132 -54.5t54 -131.5t-54 -132t-132 -55q-76 0 -130 55t-54 132z" />
<glyph unicode="/" horiz-adv-x="1064" d="M147 -164l484 1839l287 -65l-482 -1839z" />
<glyph unicode="0" horiz-adv-x="1202" d="M76 690q0 350 135 536.5t389 186.5q255 0 389.5 -187t134.5 -536t-134.5 -537t-389.5 -188q-254 0 -389 188t-135 537zM410 690q0 -183 20.5 -289t61 -150t108.5 -44q70 0 110.5 42.5t60.5 148t20 292.5t-20.5 291.5t-60.5 146t-110 41.5q-68 0 -108.5 -43.5t-61 -148.5 t-20.5 -287z" />
<glyph unicode="1" horiz-adv-x="911" d="M12 1100l467 284h291v-1384h-319v1061l-293 -178z" />
<glyph unicode="2" horiz-adv-x="1069" d="M14 1174q183 239 475 239q225 0 352.5 -114t127.5 -287q0 -109 -44.5 -207.5t-160 -230t-332.5 -324.5h565l-32 -250h-906v231q185 180 287.5 285.5t172 194.5t92 147.5t22.5 122.5q0 85 -48 133.5t-128 48.5q-73 0 -130.5 -34t-119.5 -109z" />
<glyph unicode="3" horiz-adv-x="1067" d="M-10 176l184 172q62 -70 128.5 -101.5t146.5 -31.5q97 0 156 52.5t59 146.5q0 103 -57 149.5t-169 46.5h-110l37 226h73q93 0 146 46t53 130q0 74 -49 115.5t-133 41.5q-147 0 -271 -118l-161 174q194 188 466 188q219 0 342 -99.5t123 -252.5q0 -124 -69.5 -207.5 t-192.5 -116.5v-8q61 -6 115 -30t97.5 -64.5t69 -103.5t25.5 -142q0 -180 -141 -302t-389 -122q-303 0 -479 211z" />
<glyph unicode="4" horiz-adv-x="1153" d="M53 297v217l387 905l279 -102l-328 -774h242l39 325h280v-325h158v-246h-158v-297h-319v297h-580z" />
<glyph unicode="5" horiz-adv-x="1118" d="M37 180l190 166q51 -65 117.5 -100t136.5 -35q107 0 168.5 66t61.5 174q0 129 -50.5 182t-142.5 53q-77 0 -162 -49h-221v747h850l-37 -233h-499v-285q97 43 200 43q175 0 287.5 -120t112.5 -330q0 -219 -150 -356.5t-397 -137.5q-291 0 -465 215z" />
<glyph unicode="6" horiz-adv-x="1157" d="M76 635q0 232 72.5 407.5t210 273t321.5 97.5q183 0 313 -92l-123 -199q-82 58 -182 58q-115 0 -186 -98t-84 -277q124 127 295 127t281 -122t110 -337q0 -216 -138 -362t-364 -146q-135 0 -236.5 48t-164.5 137t-94 210.5t-31 274.5zM418 600q2 -217 44 -309t142 -92 q84 0 127 72.5t43 197.5q0 128 -39.5 183t-116.5 55q-110 0 -200 -107z" />
<glyph unicode="7" horiz-adv-x="958" d="M25 1139v245h899v-221l-508 -1196l-297 96l465 1076h-559z" />
<glyph unicode="8" horiz-adv-x="1196" d="M61 369q0 232 256 344q-202 120 -202 327q0 112 65 197.5t175 130.5t245 45q215 0 347 -94.5t132 -263.5q0 -89 -55 -170t-166 -142q275 -136 275 -368q0 -174 -146 -292t-397 -118q-243 0 -386 116t-143 288zM389 385q0 -85 56.5 -135.5t154.5 -50.5q97 0 151 51t54 127 q0 41 -12 72.5t-31 54t-57.5 44t-76.5 37.5t-102 38q-137 -82 -137 -238zM432 1034q0 -75 49.5 -122.5t159.5 -86.5q68 47 94.5 97t26.5 116q0 69 -42 111.5t-118 42.5q-77 0 -123.5 -41t-46.5 -117z" />
<glyph unicode="9" horiz-adv-x="1157" d="M55 934q0 213 146.5 346t367.5 133q247 0 382.5 -148t135.5 -391q0 -209 -50.5 -363.5t-159 -266.5t-268 -183.5t-386.5 -117.5l-67 227q255 61 394 159.5t189 262.5l-8 4q-112 -119 -282 -119q-167 0 -280.5 124.5t-113.5 332.5zM383 946q0 -239 168 -239q119 0 201 118 q0 192 -41 273.5t-142 81.5q-85 0 -135.5 -60.5t-50.5 -173.5z" />
<glyph unicode=":" horiz-adv-x="509" d="M70 152q0 77 54 131.5t130 54.5q78 0 132 -54.5t54 -131.5t-54 -132t-132 -55q-76 0 -130 55t-54 132zM70 862q0 76 54 131.5t130 55.5q77 0 131.5 -55.5t54.5 -131.5q0 -77 -54 -131.5t-132 -54.5q-76 0 -130 54.5t-54 131.5z" />
<glyph unicode=";" horiz-adv-x="509" d="M63 -365l87 363q-80 55 -80 156q0 77 53 130.5t131 53.5q79 0 132.5 -54t53.5 -132q0 -44 -14.5 -91.5t-50.5 -128.5l-129 -297h-183zM70 862q0 76 54 131.5t130 55.5q77 0 131.5 -55.5t54.5 -131.5q0 -77 -54 -131.5t-132 -54.5q-76 0 -130 54.5t-54 131.5z" />
<glyph unicode="&#x3c;" d="M78 551v287l815 356l104 -227l-641 -273l641 -258l-104 -239z" />
<glyph unicode="=" d="M86 307v254h893v-254h-893zM86 739v254h893v-254h-893z" />
<glyph unicode="&#x3e;" d="M66 434l641 260l-641 271l106 229l813 -356v-287l-813 -354z" />
<glyph unicode="?" horiz-adv-x="1021" d="M37 1235q192 221 473 221q113 0 202.5 -28t144.5 -76t83.5 -109t28.5 -131q0 -67 -20.5 -121.5t-53 -91t-71.5 -67t-78.5 -57.5t-72 -55t-53 -67.5t-20.5 -87.5v-41h-297v51q0 72 18 130t46.5 96t63 68.5t69 54t63 46t46.5 51t18 62.5q0 55 -38 85t-106 30 q-127 0 -237 -125zM268 152q0 77 54.5 131.5t132.5 54.5t132 -54.5t54 -131.5t-54 -132t-132 -55t-132.5 55t-54.5 132z" />
<glyph unicode="@" horiz-adv-x="2088" d="M98 496q0 207 72.5 385t201.5 304.5t313 198.5t400 72q169 0 315.5 -43.5t253.5 -120t184 -179t115 -221.5t38 -245q0 -185 -55 -330t-157 -227t-235 -82q-114 0 -185 61t-85 138h-8q-34 -83 -109.5 -136t-179.5 -53q-78 0 -140.5 22.5t-106 63t-72.5 98t-42.5 126 t-13.5 149.5q0 255 125.5 404t351.5 149q187 0 357 -92v-567q0 -89 23 -124.5t71 -35.5q80 0 123 98.5t43 333.5q0 274 -153 424t-460 150q-222 0 -379 -92t-234 -252.5t-77 -374.5q0 -334 177 -522.5t509 -188.5q102 0 211.5 19.5t192.5 50.5l78 -226q-101 -38 -230 -62 t-254 -24q-295 0 -516.5 116t-342 332t-120.5 503zM897 475q0 -137 29 -194.5t94 -57.5q92 0 137 101v479q-41 20 -90 20q-82 0 -126 -80t-44 -268z" />
<glyph unicode="A" horiz-adv-x="1224" d="M-29 0l437 1419h411l434 -1419h-364l-74 305h-412l-73 -305h-359zM457 551h303l-146 600h-10z" />
<glyph unicode="B" horiz-adv-x="1275" d="M133 0v1419h475q92 0 170.5 -11t149 -37t120 -67t78.5 -103.5t29 -143.5q0 -118 -74 -197t-172 -102v-8q45 -9 85 -24t82 -42t71 -62.5t48 -88.5t19 -117q0 -416 -585 -416h-496zM473 246h141q54 0 95 7.5t77.5 26.5t56 56.5t19.5 93.5q0 199 -233 199h-156v-383z M473 852h131q107 0 156 40.5t49 129.5q0 83 -52 120.5t-163 37.5h-121v-328z" />
<glyph unicode="C" horiz-adv-x="1179" d="M72 713q0 174 49 315.5t135 234.5t203 143t254 50q138 0 243.5 -40t198.5 -118l-168 -196q-114 102 -254 102q-141 0 -224 -121t-83 -370q0 -245 80.5 -365.5t218.5 -120.5q88 0 155.5 31t137.5 88l153 -196q-82 -82 -199 -133.5t-265 -51.5q-142 0 -258.5 49t-200.5 142 t-130 235t-46 322z" />
<glyph unicode="D" horiz-adv-x="1343" d="M133 0v1419h406q85 0 158.5 -8t149.5 -29t137.5 -54.5t116 -88t91.5 -126.5t58.5 -172.5t21.5 -223.5q0 -717 -709 -717h-430zM473 246h115q62 0 110.5 13t91 46t70.5 86t44 135t16 191q0 111 -17 193t-45.5 132t-72.5 80t-90.5 41t-106.5 11h-115v-928z" />
<glyph unicode="E" horiz-adv-x="1079" d="M133 0v1419h875l-35 -241h-500v-338h436v-238h-436v-356h535v-246h-875z" />
<glyph unicode="F" horiz-adv-x="1001" d="M133 0v1419h850l-35 -241h-475v-373h414v-244h-414v-561h-340z" />
<glyph unicode="G" horiz-adv-x="1327" d="M72 713q0 177 53.5 319.5t146.5 234t216.5 140.5t265.5 49q277 0 475 -176l-178 -184q-66 58 -132 85t-149 27q-160 0 -253 -121.5t-93 -375.5q0 -184 33 -294.5t96 -157t164 -46.5q107 0 188 47v318h-186l-33 237h549v-700q-231 -150 -524 -150q-309 0 -474 192 t-165 556z" />
<glyph unicode="H" horiz-adv-x="1361" d="M133 0v1419h340v-549h416v549h340v-1419h-340v606h-416v-606h-340z" />
<glyph unicode="I" horiz-adv-x="606" d="M133 0v1419h340v-1419h-340z" />
<glyph unicode="J" horiz-adv-x="620" d="M-51 -106q67 27 109 58t64 74t29 88t7 115v1190h340v-1202q0 -105 -25.5 -190t-66 -142.5t-103 -104t-123.5 -75t-141 -55.5z" />
<glyph unicode="K" horiz-adv-x="1302" d="M133 0v1419h340v-1419h-340zM485 758l447 661h358l-450 -637l487 -782h-391z" />
<glyph unicode="L" horiz-adv-x="1048" d="M133 0v1419h340v-1151h555l-37 -268h-858z" />
<glyph unicode="M" horiz-adv-x="1624" d="M66 0l106 1419h428l213 -954h8l201 954h428l109 -1419h-334q-26 506 -31 698q-3 116 -3 210q0 121 5 204h-8l-215 -967h-326l-225 967h-8q13 -127 13 -288q0 -81 -3 -171l-27 -653h-331z" />
<glyph unicode="N" horiz-adv-x="1361" d="M133 0v1419h426l406 -1083h8q-51 208 -51 545v538h305v-1419h-432l-400 1083h-8q51 -249 51 -553v-530h-305z" />
<glyph unicode="O" horiz-adv-x="1417" d="M72 711q0 349 169 547t468 198q301 0 469 -195t168 -550q0 -349 -169 -547.5t-468 -198.5q-300 0 -468.5 195.5t-168.5 550.5zM426 711q0 -263 71 -380.5t212 -117.5q144 0 213 116.5t69 381.5q0 263 -70 379t-212 116t-212.5 -116t-70.5 -379z" />
<glyph unicode="P" horiz-adv-x="1232" d="M133 0v1419h449q293 0 450.5 -116.5t157.5 -346.5q0 -123 -40.5 -216.5t-115.5 -152t-177 -87.5t-230 -29h-154v-471h-340zM473 717h125q242 0 242 239q0 222 -254 222h-113v-461z" />
<glyph unicode="Q" horiz-adv-x="1417" d="M72 711q0 349 169 547t468 198q301 0 469 -195t168 -550q0 -206 -79.5 -366t-232.5 -245l2 -8q130 0 228 -32t186 -97l-203 -266q-54 61 -106 106t-120 85.5t-151 61.5t-178 21q-296 0 -458 192.5t-162 547.5zM426 711q0 -263 71 -380.5t212 -117.5q144 0 213 116.5 t69 381.5q0 263 -70 379t-212 116t-212.5 -116t-70.5 -379z" />
<glyph unicode="R" horiz-adv-x="1265" d="M133 0v1419h469q292 0 438 -106t146 -326q0 -144 -77.5 -241t-205.5 -148l373 -598h-383l-305 541h-115v-541h-340zM473 774h141q111 0 167.5 51.5t56.5 161.5q0 100 -59 147.5t-177 47.5h-129v-408z" />
<glyph unicode="S" horiz-adv-x="1169" d="M6 170l174 190q159 -143 365 -143q104 0 163.5 46t59.5 126q0 77 -51.5 121.5t-198.5 89.5q-240 75 -338 177.5t-98 264.5q0 127 71 222.5t188.5 143.5t262.5 48q301 0 494 -184l-160 -185q-143 119 -305 119q-93 0 -146 -36t-53 -101q0 -68 51 -105.5t215 -89.5 q107 -35 180 -72.5t130.5 -91t84.5 -126t27 -168.5q0 -202 -151.5 -326.5t-411.5 -124.5q-178 0 -318.5 56t-234.5 149z" />
<glyph unicode="T" horiz-adv-x="1107" d="M18 1159v260h1090l-35 -260h-348v-1159h-340v1159h-367z" />
<glyph unicode="U" horiz-adv-x="1339" d="M113 475v944h340v-934q0 -136 52 -202t165 -66t165 66t52 202v934h340v-944q0 -227 -144 -368.5t-413 -141.5q-272 0 -414.5 138t-142.5 372z" />
<glyph unicode="V" horiz-adv-x="1228" d="M-2 1419h360l256 -1136h11l260 1136h346l-404 -1419h-424z" />
<glyph unicode="W" horiz-adv-x="1738" d="M18 1419h338l136 -1134h8l192 1134h357l180 -1132h8l160 1132h323l-235 -1419h-445l-170 1049h-8l-182 -1049h-432z" />
<glyph unicode="X" horiz-adv-x="1204" d="M-10 0l401 754l-371 665h371l203 -442h8l215 442h361l-381 -651l415 -768h-370l-244 526h-8l-238 -526h-362z" />
<glyph unicode="Y" horiz-adv-x="1218" d="M-16 1419h372l254 -612h8l256 612h361l-457 -887v-532h-340v530z" />
<glyph unicode="Z" horiz-adv-x="1114" d="M37 0v254l627 903h-566v262h953v-256l-615 -893h627l-35 -270h-991z" />
<glyph unicode="[" horiz-adv-x="665" d="M63 -252v1938h545v-244h-235v-1452h235v-242h-545z" />
<glyph unicode="\" horiz-adv-x="1064" d="M147 1610l287 65l484 -1839l-289 -65z" />
<glyph unicode="]" horiz-adv-x="665" d="M57 -8h236v1450h-236v244h545v-1938h-545v244z" />
<glyph unicode="^" horiz-adv-x="1130" d="M29 1079l387 650h299l387 -650h-320l-219 406l-211 -406h-323z" />
<glyph unicode="_" horiz-adv-x="1064" d="M18 -96h1029v-254h-1029v254z" />
<glyph unicode="`" horiz-adv-x="681" d="M49 1518l144 243l442 -286l-98 -166z" />
<glyph unicode="a" horiz-adv-x="1120" d="M39 307q0 178 134.5 274.5t385.5 96.5h125v39q0 94 -44 130t-155 36q-108 0 -282 -58l-74 217q215 82 408 82q244 0 353 -95t109 -290v-424q0 -61 15.5 -89t54.5 -42l-68 -215q-99 9 -164 42.5t-102 99.5q-57 -73 -144.5 -109.5t-189.5 -36.5q-167 0 -264.5 94.5 t-97.5 247.5zM385 330q0 -63 31.5 -97t93.5 -34q110 0 174 118v175h-57q-131 0 -186.5 -40t-55.5 -122z" />
<glyph unicode="b" horiz-adv-x="1220" d="M127 0v1520l328 34v-577q50 68 126 107.5t158 39.5q209 0 310.5 -151t101.5 -426q0 -169 -51 -299.5t-153 -206.5t-242 -76q-83 0 -154.5 35t-120.5 102l-12 -102h-291zM455 301q61 -98 161 -98q195 0 195 340q0 131 -21.5 207.5t-58.5 104.5t-96 28q-105 0 -180 -125 v-457z" />
<glyph unicode="c" horiz-adv-x="991" d="M63 537q0 170 64 302.5t187 208.5t288 76q213 0 373 -135l-141 -196q-99 79 -207 79t-163.5 -79t-55.5 -256q0 -172 55.5 -243t161.5 -71q52 0 97.5 18.5t104.5 61.5l148 -209q-164 -129 -363 -129q-258 0 -403.5 156t-145.5 416z" />
<glyph unicode="d" horiz-adv-x="1226" d="M70 547q0 168 53.5 298t156.5 204.5t242 74.5q143 0 248 -100v530l328 -34v-1520h-289l-16 119q-50 -68 -129.5 -111t-180.5 -43q-206 0 -309.5 154.5t-103.5 427.5zM410 545q0 -131 23 -208t60.5 -104.5t96.5 -27.5q105 0 180 125v467q-72 88 -162 88q-198 0 -198 -340z " />
<glyph unicode="e" horiz-adv-x="1134" d="M63 543q0 164 57.5 293.5t176 208.5t281.5 79q233 0 366 -148t133 -411q0 -67 -6 -116h-672q32 -246 244 -246q127 0 256 98l137 -186q-189 -150 -420 -150q-137 0 -243.5 42.5t-173.5 120t-101.5 182.5t-34.5 233zM395 645h361q-2 125 -42 192.5t-134 67.5 q-165 0 -185 -260z" />
<glyph unicode="f" horiz-adv-x="737" d="M4 860v227h168v95q0 164 107.5 268t310.5 104q168 0 319 -67l-90 -215q-93 41 -178 41q-81 0 -111 -32t-30 -112v-82h256l-37 -227h-219v-860h-328v860h-168z" />
<glyph unicode="g" horiz-adv-x="1132" d="M14 -102h293q0 -77 52.5 -106.5t183.5 -29.5q74 0 124 9.5t75 27.5t34.5 38t9.5 46q0 107 -155 107h-162q-168 0 -254 59t-86 156q0 59 33 113.5t90 91.5q-184 107 -184 307q0 131 63 224.5t169 138t243 44.5q286 0 520 142l82 -244q-99 -41 -311 -41v-8 q188 -77 188 -275q0 -159 -124 -260.5t-333 -101.5q-72 0 -135 14q-22 -25 -22 -59q0 -37 28 -53.5t113 -16.5h133q201 0 317.5 -87.5t116.5 -229.5q0 -172 -152 -265.5t-429 -93.5q-146 0 -249 24t-161.5 70.5t-84.5 108t-26 143.5v7zM395 729q0 -85 43 -131.5t117 -46.5 q75 0 114.5 46.5t39.5 135.5q0 170 -154 170q-75 0 -117.5 -46t-42.5 -128z" />
<glyph unicode="h" horiz-adv-x="1183" d="M127 0v1520l328 32v-575q141 147 317 147q144 0 219.5 -84.5t75.5 -240.5v-799h-328v748q0 73 -24 104t-76 31q-90 0 -184 -131v-752h-328z" />
<glyph unicode="i" horiz-adv-x="575" d="M94 1475q0 79 54.5 131.5t138.5 52.5q85 0 139.5 -52.5t54.5 -131.5t-54.5 -132t-139.5 -53q-84 0 -138.5 53t-54.5 132zM123 0v1087h328v-1087h-328z" />
<glyph unicode="j" horiz-adv-x="575" d="M-98 -215q46 20 77 38t60.5 44t46.5 57.5t27 76.5t10 103v983h328v-962q0 -105 -21 -188t-55.5 -140t-93 -105t-118.5 -80t-147 -67zM94 1475q0 79 54.5 131.5t138.5 52.5q85 0 139.5 -52.5t54.5 -131.5t-54.5 -132t-139.5 -53q-84 0 -138.5 53t-54.5 132z" />
<glyph unicode="k" horiz-adv-x="1134" d="M127 0v1520l328 34v-1554h-328zM465 596l332 491h333l-329 -477l354 -610h-369z" />
<glyph unicode="l" horiz-adv-x="606" d="M113 283v1237l327 34v-1247q0 -84 56 -84q30 0 53 10l63 -231q-98 -37 -206 -37q-138 0 -215.5 80.5t-77.5 237.5z" />
<glyph unicode="m" horiz-adv-x="1734" d="M127 0v1087h285l24 -124q136 161 314 161q195 0 258 -161q145 161 321 161q143 0 215 -84t72 -241v-799h-328v754q0 69 -20.5 99t-65.5 30q-88 0 -166 -127v-756h-327v760q0 66 -21.5 94.5t-66.5 28.5q-85 0 -166 -127v-756h-328z" />
<glyph unicode="n" horiz-adv-x="1183" d="M127 0v1087h285l24 -124q142 161 336 161q144 0 219.5 -84.5t75.5 -240.5v-799h-328v748q0 73 -24 104t-76 31q-90 0 -184 -131v-752h-328z" />
<glyph unicode="o" horiz-adv-x="1198" d="M63 545q0 262 144.5 420.5t392.5 158.5t391.5 -157t143.5 -420q0 -273 -142 -427.5t-393 -154.5q-253 0 -395 152.5t-142 427.5zM403 545q0 -178 48 -259t149 -81q100 0 147.5 81.5t47.5 260.5q0 173 -48 254.5t-147 81.5q-100 0 -148.5 -81.5t-48.5 -256.5z" />
<glyph unicode="p" horiz-adv-x="1220" d="M127 -455v1542h289l16 -120q62 80 144 118.5t163 38.5q209 0 310.5 -151t101.5 -426q0 -168 -51.5 -299.5t-150.5 -207t-230 -75.5q-164 0 -264 115v-500zM455 301q63 -96 163 -96q193 0 193 338q0 131 -21.5 207.5t-58.5 104.5t-96 28q-105 0 -180 -125v-457z" />
<glyph unicode="q" horiz-adv-x="1226" d="M70 547q0 168 53.5 298t156.5 204.5t242 74.5q171 0 275 -125l16 88h285v-1542l-328 35v512q-113 -127 -287 -127q-140 0 -234 73t-136.5 201t-42.5 308zM410 545q0 -130 23 -206.5t60.5 -104t96.5 -27.5q106 0 180 123v467q-72 88 -162 88q-198 0 -198 -340z" />
<glyph unicode="r" horiz-adv-x="811" d="M125 0v1087h291l24 -202q38 109 112.5 172t166.5 63q49 0 108 -16l-53 -318q-50 15 -98 15q-92 0 -143.5 -67t-79.5 -187v-547h-328z" />
<glyph unicode="s" horiz-adv-x="1005" d="M12 127l162 180q137 -108 289 -108q75 0 117.5 26.5t42.5 73.5q0 39 -18 61.5t-68 43t-160 49.5q-149 39 -230 122.5t-81 212.5q0 144 121 240t339 96q118 0 226.5 -35t179.5 -88l-133 -192q-131 82 -258 82q-71 0 -108.5 -22.5t-37.5 -61.5q0 -43 44 -69t192 -68 q167 -48 249.5 -125t82.5 -219q0 -165 -140.5 -263t-349.5 -98q-141 0 -260 43t-201 119z" />
<glyph unicode="t" horiz-adv-x="790" d="M-4 862v225h162v236l327 39v-275h256l-34 -225h-222v-497q0 -76 25.5 -109t77.5 -33q53 0 117 37l110 -209q-59 -41 -141 -63.5t-156 -22.5q-104 1 -174.5 27.5t-111 80.5t-57.5 124.5t-17 169.5v495h-162z" />
<glyph unicode="u" horiz-adv-x="1171" d="M117 303v784h327v-743q0 -64 20.5 -98.5t74.5 -34.5q104 0 178 113v763h327v-1087h-286l-15 127q-55 -78 -140 -120t-183 -42q-154 0 -228.5 88.5t-74.5 249.5z" />
<glyph unicode="v" horiz-adv-x="1052" d="M-12 1087h354l188 -823h9l194 823h332l-344 -1087h-385z" />
<glyph unicode="w" horiz-adv-x="1544" d="M8 1087h330l108 -819h9l168 819h319l145 -815h9l125 815h315l-227 -1087h-391l-142 770h-8l-145 -770h-383z" />
<glyph unicode="x" horiz-adv-x="1044" d="M-25 0l349 571l-316 516h367l145 -335h8l140 335h348l-297 -503l350 -584h-371l-182 395h-8l-176 -395h-357z" />
<glyph unicode="y" d="M-12 1087h348l186 -862h8l205 862h338l-344 -1087q-66 -212 -215.5 -327t-398.5 -128l-37 232q157 20 232 68.5t118 154.5h-113z" />
<glyph unicode="z" horiz-adv-x="942" d="M27 0v231l491 611h-448v245h825v-229l-489 -610h501l-30 -248h-850z" />
<glyph unicode="{" horiz-adv-x="665" d="M18 584v266q79 0 107.5 35.5t28.5 122.5v374q0 86 21.5 146t73 104.5t142 66t223.5 21.5v-227q-92 0 -123.5 -25t-31.5 -92v-399q0 -119 -55 -177.5t-160 -78.5v-8q104 -22 159.5 -77.5t55.5 -164.5v-414q0 -66 31.5 -91t123.5 -25v-228q-133 0 -223.5 21.5t-142 66 t-73 104.5t-21.5 146v389q0 77 -30 110.5t-106 33.5z" />
<glyph unicode="|" horiz-adv-x="768" d="M231 -215v1874h306v-1874h-306z" />
<glyph unicode="}" horiz-adv-x="665" d="M51 -59q92 0 124 25t32 91v414q0 109 55.5 164.5t159.5 77.5v8q-105 20 -160 78.5t-55 177.5v399q0 67 -32 92t-124 25v227q133 0 223.5 -21.5t142.5 -66t73.5 -104.5t21.5 -146v-374q0 -87 28 -122.5t107 -35.5v-266q-76 0 -105.5 -33.5t-29.5 -110.5v-389 q0 -86 -21.5 -146t-73.5 -104.5t-142.5 -66t-223.5 -21.5v228z" />
<glyph unicode="~" d="M37 580q26 53 54.5 94.5t68.5 81t92 61t113 21.5q63 0 118.5 -18.5t88 -41t71 -41t70.5 -18.5q49 0 76 26t57 82l180 -96q-26 -53 -54 -94.5t-67.5 -81t-92 -61t-114.5 -21.5q-63 0 -118 19t-87.5 41.5t-70.5 41.5t-70 19q-35 0 -61.5 -16.5t-39.5 -35.5t-34 -57z" />
<glyph unicode="&#xa1;" horiz-adv-x="509" d="M70 860q0 77 54 133t130 56q77 0 131.5 -56t54.5 -133q0 -76 -54 -130t-132 -54q-76 0 -130 54.5t-54 129.5zM80 -418l43 907h262l45 -907h-350z" />
<glyph unicode="&#xa2;" horiz-adv-x="1005" d="M61 537q0 224 109.5 378t302.5 193v309h234v-305q146 -23 264 -123l-142 -196q-99 79 -206 79q-108 0 -164 -79t-56 -256q0 -172 56 -243t162 -71q53 0 97.5 18t104.5 62l148 -209q-122 -96 -264 -119v-305h-236v312q-196 38 -303 185.5t-107 369.5z" />
<glyph unicode="&#xa3;" horiz-adv-x="1140" d="M51 0v236q35 9 62 22t45 26.5t30.5 34.5t18.5 37.5t9.5 46t4 48.5t0.5 55v127h-151v168h151v184q0 191 121.5 309.5t343.5 118.5q270 0 418 -209l-201 -145q-42 61 -85.5 85.5t-104.5 24.5q-89 0 -129.5 -51t-40.5 -162v-155h372v-168h-372v-133q0 -86 -26.5 -147 t-92.5 -97v-8h641l-37 -248h-977z" />
<glyph unicode="&#xa4;" horiz-adv-x="1146" d="M23 291l163 166q-63 101 -63 243q0 143 61 244l-161 164l145 145l166 -166q100 60 241 60q138 0 240 -60l164 164l145 -145l-159 -162q65 -108 65 -244q0 -137 -67 -245l161 -162l-145 -143l-164 159q-99 -57 -240 -57t-243 57l-164 -164zM375 700q0 -109 51 -168 t149 -59q97 0 147 59t50 168q0 107 -50 166.5t-147 59.5q-98 0 -149 -59.5t-51 -166.5z" />
<glyph unicode="&#xa5;" horiz-adv-x="1179" d="M-4 1384h348l248 -565h8l244 565h338l-348 -663h194v-168h-274v-143h274v-170h-274v-240h-326v240h-272v170h272v143h-272v168h190z" />
<glyph unicode="&#xa6;" horiz-adv-x="768" d="M231 -215v745h306v-745h-306zM231 913v746h306v-746h-306z" />
<glyph unicode="&#xa7;" horiz-adv-x="1101" d="M94 610q0 80 45 144.5t117 109.5q-111 88 -111 219q0 144 122 236t321 92q228 0 397 -115l-115 -188q-122 78 -264 78q-72 0 -110.5 -24t-38.5 -66q0 -35 16.5 -56.5t66 -44.5t154.5 -55q78 -24 132 -50t97 -62.5t64 -86t21 -114.5q0 -153 -156 -250q109 -83 109 -221 q0 -147 -125.5 -237.5t-331.5 -90.5q-230 0 -398 115l111 200q136 -88 270 -88q76 0 119 23.5t43 64.5q0 34 -15.5 55t-67.5 46t-160 59q-158 48 -235 116t-77 191zM381 655q0 -63 51 -94t242 -96q49 62 49 119q0 60 -55 94.5t-244 95.5q-43 -54 -43 -119z" />
<glyph unicode="&#xa8;" horiz-adv-x="911" d="M49 1487q0 69 49.5 116.5t120.5 47.5t119.5 -47.5t48.5 -116.5q0 -71 -48.5 -119.5t-119.5 -48.5t-120.5 49t-49.5 119zM524 1487q0 69 49.5 116.5t120.5 47.5q72 0 121 -47.5t49 -116.5q0 -71 -49 -119.5t-121 -48.5q-71 0 -120.5 49t-49.5 119z" />
<glyph unicode="&#xa9;" horiz-adv-x="1650" d="M133 885q0 188 92.5 346t252 249t349.5 91t349.5 -91t251.5 -248.5t92 -346.5q0 -188 -92 -344.5t-251 -247t-350 -90.5q-190 0 -349.5 90.5t-252 247.5t-92.5 344zM324 885q0 -219 143.5 -368.5t359.5 -149.5q215 0 359.5 150t144.5 368q0 144 -65 263t-181 188t-258 69 q-143 0 -258.5 -69t-180 -188t-64.5 -263zM467 887q0 186 101 294.5t261 108.5q159 0 269 -104l-101 -127q-69 53 -143 53q-70 0 -112 -54.5t-42 -170.5q0 -223 150 -223q91 0 166 63l92 -135q-121 -111 -277 -111q-168 0 -266 106.5t-98 299.5z" />
<glyph unicode="&#xaa;" horiz-adv-x="1228" d="M154 907q0 141 114.5 221t327.5 80h104v25q0 70 -36 94.5t-129 24.5q-99 0 -236 -47l-66 186q180 63 345 63q207 0 298 -78t91 -235v-334q0 -44 13.5 -65.5t47.5 -32.5l-63 -182q-92 9 -146 36t-84 82q-104 -122 -272 -122q-139 0 -224 78.5t-85 205.5zM190 0v223h840 v-223h-840zM451 918q0 -103 94 -103q44 0 84.5 25.5t70.5 70.5v127h-61q-103 0 -145.5 -28.5t-42.5 -91.5z" />
<glyph unicode="&#xab;" horiz-adv-x="1284" d="M74 483v207l389 451l201 -133l-263 -420l263 -422l-201 -133zM621 483v207l389 451l200 -133l-262 -420l262 -422l-200 -133z" />
<glyph unicode="&#xac;" d="M86 526v252h893v-567h-272v315h-621z" />
<glyph unicode="&#xad;" horiz-adv-x="835" d="M90 514v254h655v-254h-655z" />
<glyph unicode="&#xae;" horiz-adv-x="1308" d="M88 989q0 239 163 401t404 162q159 0 288 -74t202.5 -203t73.5 -286q0 -156 -73.5 -284.5t-202.5 -201.5t-288 -73q-119 0 -224 43t-180.5 117t-119 178t-43.5 221zM250 989q0 -181 114.5 -300.5t290.5 -119.5t290 119.5t114 300.5q0 183 -114 304.5t-290 121.5 t-290.5 -121.5t-114.5 -304.5zM436 717v581h178q275 0 275 -180q0 -57 -32 -98t-87 -62l158 -241h-170l-127 211h-47v-211h-148zM584 1047h47q106 0 106 75q0 66 -108 66h-45v-141z" />
<glyph unicode="&#xaf;" horiz-adv-x="722" d="M49 1374v228h627v-228h-627z" />
<glyph unicode="&#xb0;" horiz-adv-x="1050" d="M80 1110q0 79 32 145.5t84 109.5t117 67t133 24q92 0 174 -40t136.5 -121.5t54.5 -186.5q0 -155 -111 -252.5t-254 -97.5q-68 0 -133 24.5t-117 68.5t-84 112t-32 147zM305 1110q0 -72 38.5 -116t102.5 -44t103 43.5t39 114.5q0 72 -39 116t-103 44t-102.5 -43 t-38.5 -115z" />
<glyph unicode="&#xb1;" d="M86 0v246h893v-246h-893zM86 555v248h309v321h273v-321h311v-248h-311v-207h-273v207h-309z" />
<glyph unicode="&#xb2;" horiz-adv-x="819" d="M72 1380q131 156 327 156q143 0 226.5 -76t83.5 -182q0 -102 -77 -202.5t-267 -252.5h376l-26 -178h-625v158q216 193 294.5 288.5t78.5 159.5q0 47 -28 74t-73 27q-41 0 -74 -19.5t-69 -64.5z" />
<glyph unicode="&#xb3;" horiz-adv-x="819" d="M41 766l133 121q84 -84 176 -84q63 0 98 30.5t35 79.5q0 113 -139 113h-84l29 162h59q50 0 80.5 23t30.5 67q0 42 -29 64t-78 22q-90 0 -172 -74l-119 125q137 121 320 121q151 0 233 -64t82 -167q0 -140 -161 -187v-8q87 -13 138.5 -71t51.5 -138q0 -119 -95.5 -194.5 t-262.5 -75.5q-204 0 -326 135z" />
<glyph unicode="&#xb4;" horiz-adv-x="681" d="M49 1475l443 284l143 -241l-490 -209z" />
<glyph unicode="&#xb5;" horiz-adv-x="1185" d="M129 -453v1540h326v-686q0 -93 21 -138.5t73 -45.5q50 0 97.5 29.5t80.5 79.5v761h328v-788q0 -123 20 -299h-291q-17 61 -26 129q-95 -160 -228 -160q-50 0 -85 20t-68 62l-8 -4q35 -64 52 -128.5t17 -158.5v-180z" />
<glyph unicode="&#xb6;" horiz-adv-x="1615" d="M131 979q0 198 138.5 319t392.5 121h731v-1849l-287 -23v1645h-182v-1622l-287 -23v994q-243 3 -374.5 123t-131.5 315z" />
<glyph unicode="&#xb7;" horiz-adv-x="509" d="M70 672q0 77 54 131.5t130 54.5q78 0 132 -54.5t54 -131.5q0 -76 -54.5 -131.5t-131.5 -55.5q-76 0 -130 55.5t-54 131.5z" />
<glyph unicode="&#xb8;" horiz-adv-x="645" d="M49 -475l76 149q70 -34 131 -34q104 0 104 63q0 38 -44 53t-142 15l29 262h180v-131q107 -12 161 -65t54 -138q0 -105 -84.5 -171.5t-222.5 -66.5q-139 0 -242 64z" />
<glyph unicode="&#xb9;" horiz-adv-x="819" d="M92 1337l324 183h198v-875h-233v637l-180 -100z" />
<glyph unicode="&#xba;" horiz-adv-x="1228" d="M164 1090q0 203 121 333.5t329 130.5t329.5 -130t121.5 -334q0 -210 -121 -338.5t-330 -128.5q-211 0 -330.5 127.5t-119.5 339.5zM195 0v223h839v-223h-839zM451 1090q0 -138 41 -200.5t122 -62.5t122.5 62.5t41.5 200.5q0 262 -164 262q-81 0 -122 -62.5t-41 -199.5z " />
<glyph unicode="&#xbb;" horiz-adv-x="1284" d="M74 166l262 422l-262 420l200 133l390 -451v-207l-390 -450zM621 166l262 422l-262 420l200 133l389 -451v-207l-389 -450z" />
<glyph unicode="&#xbc;" horiz-adv-x="1976" d="M92 1260l324 182h198v-875h-233v637l-180 -100zM473 -82l832 1643l200 -101l-831 -1640zM1204 174v156l232 563l196 -68l-186 -477h137l33 197h192v-197h97v-174h-97v-174h-227v174h-377z" />
<glyph unicode="&#xbd;" horiz-adv-x="1976" d="M92 1260l324 182h198v-875h-233v637l-180 -100zM473 -82l832 1643l200 -101l-831 -1640zM1239 735q131 156 328 156q143 0 226 -76t83 -182q0 -102 -77 -202.5t-267 -252.5h377l-27 -178h-625v158q216 193 294.5 288.5t78.5 159.5q0 47 -27.5 74t-72.5 27q-77 0 -144 -84 z" />
<glyph unicode="&#xbe;" horiz-adv-x="1976" d="M37 688l133 121q84 -84 176 -84q63 0 98 31t35 80q0 112 -139 112h-84l29 162h59q50 0 80.5 23t30.5 67q0 42 -29 64t-78 22q-90 0 -172 -74l-119 125q137 121 320 121q151 0 233 -64t82 -167q0 -140 -162 -187v-8q87 -13 139 -71t52 -138q0 -119 -95.5 -194.5 t-263.5 -75.5q-203 0 -325 135zM473 -82l832 1643l200 -101l-831 -1640zM1204 174v156l232 563l196 -68l-186 -477h137l33 197h192v-197h97v-174h-97v-174h-227v174h-377z" />
<glyph unicode="&#xbf;" horiz-adv-x="1021" d="M55 -111q0 67 20 121.5t52.5 91t71.5 67t78.5 57.5t72 55t52.5 67.5t20 87.5v53h299v-65q0 -71 -18 -129t-46.5 -95.5t-63 -68t-69 -54.5t-63 -46t-46.5 -50.5t-18 -62.5q0 -55 37 -85t105 -30q126 0 237 123l209 -162q-190 -219 -473 -219q-221 0 -339 99t-118 245z M381 860q0 77 55 133t131 56q77 0 132 -56t55 -133q0 -75 -54.5 -129.5t-132.5 -54.5q-76 0 -131 54.5t-55 129.5z" />
<glyph unicode="&#xc0;" horiz-adv-x="1224" d="M-29 0l437 1419h411l434 -1419h-364l-74 305h-412l-73 -305h-359zM307 1745l144 244l442 -285l-96 -166zM457 551h303l-146 600h-10z" />
<glyph unicode="&#xc1;" horiz-adv-x="1224" d="M-29 0l437 1419h411l434 -1419h-364l-74 305h-412l-73 -305h-359zM315 1706l443 285l143 -244l-487 -207zM457 551h303l-146 600h-10z" />
<glyph unicode="&#xc2;" horiz-adv-x="1224" d="M-29 0l437 1419h411l434 -1419h-364l-74 305h-412l-73 -305h-359zM221 1667l291 266h201l288 -266l-116 -135l-273 172l-272 -172zM457 551h303l-146 600h-10z" />
<glyph unicode="&#xc3;" horiz-adv-x="1224" d="M-29 0l437 1419h411l434 -1419h-364l-74 305h-412l-73 -305h-359zM225 1663q40 106 109.5 173t161.5 67q44 0 82 -13.5t59 -29.5t45.5 -29.5t44.5 -13.5q34 0 57.5 20t49.5 66l163 -78q-42 -108 -110 -174t-160 -66q-44 0 -82 13.5t-59 29.5t-45.5 29.5t-44.5 13.5 q-35 0 -57.5 -20t-49.5 -66zM457 551h303l-146 600h-10z" />
<glyph unicode="&#xc4;" horiz-adv-x="1224" d="M-29 0l437 1419h411l434 -1419h-364l-74 305h-412l-73 -305h-359zM205 1716q0 67 50.5 115.5t119.5 48.5q72 0 121 -48t49 -116q0 -71 -49 -119.5t-121 -48.5q-70 0 -120 49t-50 119zM457 551h303l-146 600h-10zM680 1716q0 67 50.5 115.5t119.5 48.5q72 0 121 -48 t49 -116q0 -71 -49 -119.5t-121 -48.5q-70 0 -120 49t-50 119z" />
<glyph unicode="&#xc5;" horiz-adv-x="1224" d="M-29 0l437 1419h411l434 -1419h-364l-74 305h-412l-73 -305h-359zM326 1784q0 111 78 189.5t206 78.5t207.5 -78.5t79.5 -189.5q0 -114 -79.5 -193.5t-207.5 -79.5t-206 79.5t-78 193.5zM457 551h303l-146 600h-10zM518 1784q0 -49 25.5 -76t66.5 -27t66.5 27t25.5 76 t-25 74.5t-67 25.5t-67 -25.5t-25 -74.5z" />
<glyph unicode="&#xc6;" horiz-adv-x="1710" d="M-49 0l559 1419h1081l-37 -241h-550l69 -338h500v-242h-453l74 -354h473v-244h-758l-53 305h-438l-101 -305h-366zM498 551h319l-106 598h-11z" />
<glyph unicode="&#xc7;" horiz-adv-x="1179" d="M72 713q0 174 49 315.5t135 234.5t203 143t254 50q138 0 243.5 -40t198.5 -118l-168 -196q-114 102 -254 102q-141 0 -224 -121t-83 -370q0 -245 80.5 -365.5t218.5 -120.5q88 0 155.5 31t137.5 88l153 -196q-167 -167 -417 -183v-65q105 -12 159 -65t54 -138 q0 -105 -85 -171.5t-223 -66.5q-134 0 -241 64l78 149q66 -34 129 -34q106 0 106 63q0 38 -45 53t-143 15l22 206q-229 44 -361 234t-132 502z" />
<glyph unicode="&#xc8;" horiz-adv-x="1079" d="M133 0v1419h875l-35 -241h-500v-338h436v-238h-436v-356h535v-246h-875zM274 1745l144 244l442 -285l-96 -166z" />
<glyph unicode="&#xc9;" horiz-adv-x="1079" d="M133 0v1419h875l-35 -241h-500v-338h436v-238h-436v-356h535v-246h-875zM291 1704l442 285l144 -244l-488 -207z" />
<glyph unicode="&#xca;" horiz-adv-x="1079" d="M133 0v1419h875l-35 -241h-500v-338h436v-238h-436v-356h535v-246h-875zM178 1667l291 266h201l288 -266l-116 -135l-273 172l-272 -172z" />
<glyph unicode="&#xcb;" horiz-adv-x="1079" d="M133 0v1419h875l-35 -241h-500v-338h436v-238h-436v-356h535v-246h-875zM158 1716q0 67 50.5 115.5t119.5 48.5q72 0 121 -48t49 -116q0 -71 -49 -119.5t-121 -48.5q-70 0 -120 49t-50 119zM633 1716q0 67 50.5 115.5t119.5 48.5q72 0 121 -48t49 -116q0 -71 -49 -119.5 t-121 -48.5q-70 0 -120 49t-50 119z" />
<glyph unicode="&#xcc;" horiz-adv-x="606" d="M2 1745l143 244l443 -285l-96 -166zM133 0v1419h340v-1419h-340z" />
<glyph unicode="&#xcd;" horiz-adv-x="606" d="M8 1704l443 285l143 -244l-488 -207zM133 0v1419h340v-1419h-340z" />
<glyph unicode="&#xce;" horiz-adv-x="606" d="M-86 1667l291 266h201l288 -266l-116 -135l-273 172l-272 -172zM133 0v1419h340v-1419h-340z" />
<glyph unicode="&#xcf;" horiz-adv-x="606" d="M-104 1716q0 67 50.5 115.5t119.5 48.5q72 0 121 -48t49 -116q0 -71 -49 -119.5t-121 -48.5q-70 0 -120 49t-50 119zM133 0v1419h340v-1419h-340zM371 1716q0 67 50.5 115.5t119.5 48.5q72 0 121 -48t49 -116q0 -71 -49 -119.5t-121 -48.5q-70 0 -120 49t-50 119z" />
<glyph unicode="&#xd0;" horiz-adv-x="1351" d="M16 621v204h127v594h406q85 0 158.5 -8t149.5 -29t137 -54.5t115.5 -88t91 -126.5t58 -172.5t21.5 -223.5q0 -717 -707 -717h-430v621h-127zM483 246h113q62 0 110.5 13t91 46t70.5 86t44 135t16 191q0 111 -17 193t-45 132t-71.5 80t-90 41t-106.5 11h-115v-349h283 v-204h-283v-375z" />
<glyph unicode="&#xd1;" horiz-adv-x="1361" d="M133 0v1419h426l406 -1083h8q-51 208 -51 545v538h305v-1419h-432l-400 1083h-8q51 -249 51 -553v-530h-305zM291 1663q40 106 109 173t161 67q44 0 82 -13.5t59.5 -29.5t46 -29.5t44.5 -13.5q33 0 56 20t50 66l164 -78q-42 -108 -110 -174t-160 -66q-44 0 -82 13.5 t-59.5 29.5t-46 29.5t-44.5 13.5q-35 0 -57 -19.5t-49 -66.5z" />
<glyph unicode="&#xd2;" horiz-adv-x="1417" d="M72 711q0 349 169 547t468 198q301 0 469 -195t168 -550q0 -349 -169 -547.5t-468 -198.5q-300 0 -468.5 195.5t-168.5 550.5zM403 1745l144 244l442 -285l-96 -166zM426 711q0 -263 71 -380.5t212 -117.5q144 0 213 116.5t69 381.5q0 263 -70 379t-212 116t-212.5 -116 t-70.5 -379z" />
<glyph unicode="&#xd3;" horiz-adv-x="1417" d="M72 711q0 349 169 547t468 198q301 0 469 -195t168 -550q0 -349 -169 -547.5t-468 -198.5q-300 0 -468.5 195.5t-168.5 550.5zM426 711q0 -263 71 -380.5t212 -117.5q144 0 213 116.5t69 381.5q0 263 -70 379t-212 116t-212.5 -116t-70.5 -379zM428 1704l442 285 l144 -244l-488 -207z" />
<glyph unicode="&#xd4;" horiz-adv-x="1417" d="M72 711q0 349 169 547t468 198q301 0 469 -195t168 -550q0 -349 -169 -547.5t-468 -198.5q-300 0 -468.5 195.5t-168.5 550.5zM317 1667l291 266h201l289 -266l-117 -135l-272 172l-273 -172zM426 711q0 -263 71 -380.5t212 -117.5q144 0 213 116.5t69 381.5 q0 263 -70 379t-212 116t-212.5 -116t-70.5 -379z" />
<glyph unicode="&#xd5;" horiz-adv-x="1417" d="M72 711q0 349 169 547t468 198q301 0 469 -195t168 -550q0 -349 -169 -547.5t-468 -198.5q-300 0 -468.5 195.5t-168.5 550.5zM324 1663q40 106 109 173t161 67q44 0 82 -13.5t59 -29.5t45.5 -29.5t44.5 -13.5q34 0 57.5 20t49.5 66l164 -78q-42 -107 -110.5 -173.5 t-160.5 -66.5q-44 0 -82 13.5t-59 29.5t-45.5 29.5t-44.5 13.5q-35 0 -57.5 -20t-49.5 -66zM426 711q0 -263 71 -380.5t212 -117.5q144 0 213 116.5t69 381.5q0 263 -70 379t-212 116t-212.5 -116t-70.5 -379z" />
<glyph unicode="&#xd6;" horiz-adv-x="1417" d="M72 711q0 349 169 547t468 198q301 0 469 -195t168 -550q0 -349 -169 -547.5t-468 -198.5q-300 0 -468.5 195.5t-168.5 550.5zM301 1716q0 67 50.5 115.5t119.5 48.5q72 0 121 -48t49 -116q0 -71 -49 -119.5t-121 -48.5q-70 0 -120 49t-50 119zM426 711q0 -263 71 -380.5 t212 -117.5q144 0 213 116.5t69 381.5q0 263 -70 379t-212 116t-212.5 -116t-70.5 -379zM776 1716q0 67 50.5 115.5t119.5 48.5q72 0 121 -48t49 -116q0 -71 -49 -119.5t-121 -48.5q-70 0 -120 49t-50 119z" />
<glyph unicode="&#xd7;" d="M117 385l239 236l-239 235l180 180l235 -239l234 239l180 -180l-237 -235l237 -236l-180 -180l-234 239l-235 -239z" />
<glyph unicode="&#xd8;" horiz-adv-x="1417" d="M72 711q0 349 169 547t468 198q34 0 92 -8l76 248l256 -68l-82 -260q143 -87 219 -254.5t76 -402.5q0 -349 -169 -547.5t-468 -198.5q-52 0 -91 8l-75 -252l-256 68l82 262q-143 87 -220 255.5t-77 404.5zM420 711q0 -297 82 -408l266 899q-24 4 -59 4 q-143 0 -216 -116.5t-73 -378.5zM651 217q36 -4 58 -4q145 0 216.5 117t71.5 381q0 291 -79 399z" />
<glyph unicode="&#xd9;" horiz-adv-x="1339" d="M113 475v944h340v-934q0 -136 52 -202t165 -66t165 66t52 202v934h340v-944q0 -227 -144 -368.5t-413 -141.5q-272 0 -414.5 138t-142.5 372zM360 1745l144 244l442 -285l-96 -166z" />
<glyph unicode="&#xda;" horiz-adv-x="1339" d="M113 475v944h340v-934q0 -136 52 -202t165 -66t165 66t52 202v934h340v-944q0 -227 -144 -368.5t-413 -141.5q-272 0 -414.5 138t-142.5 372zM381 1704l442 285l144 -244l-488 -207z" />
<glyph unicode="&#xdb;" horiz-adv-x="1339" d="M113 475v944h340v-934q0 -136 52 -202t165 -66t165 66t52 202v934h340v-944q0 -227 -144 -368.5t-413 -141.5q-272 0 -414.5 138t-142.5 372zM279 1667l290 266h201l289 -266l-117 -135l-272 172l-273 -172z" />
<glyph unicode="&#xdc;" horiz-adv-x="1339" d="M113 475v944h340v-934q0 -136 52 -202t165 -66t165 66t52 202v934h340v-944q0 -227 -144 -368.5t-413 -141.5q-272 0 -414.5 138t-142.5 372zM260 1716q0 67 50.5 115.5t119.5 48.5q72 0 121 -48t49 -116q0 -71 -49 -119.5t-121 -48.5q-70 0 -120 49t-50 119zM735 1716 q0 67 50.5 115.5t119.5 48.5q72 0 121 -48t49 -116q0 -71 -49 -119.5t-121 -48.5q-70 0 -120 49t-50 119z" />
<glyph unicode="&#xdd;" horiz-adv-x="1218" d="M-16 1419h372l254 -612h8l256 612h361l-457 -887v-532h-340v530zM322 1704l442 285l143 -244l-487 -207z" />
<glyph unicode="&#xde;" horiz-adv-x="1228" d="M133 0v1419h340v-229h113q293 0 450.5 -117t157.5 -348q0 -245 -146.5 -366t-416.5 -121h-158v-238h-340zM473 483h135q114 0 173 56.5t59 183.5q0 117 -61 171t-185 54h-121v-465z" />
<glyph unicode="&#xdf;" horiz-adv-x="1243" d="M127 0v1087q0 221 126 344t361 123q198 0 311 -90.5t113 -228.5q0 -51 -21.5 -94.5t-52 -73.5t-60.5 -57.5t-51.5 -59t-21.5 -65.5q0 -31 21.5 -60t55.5 -54t75 -52t82 -62t75 -77t55.5 -103t21.5 -133q0 -177 -119 -278t-303 -101q-150 0 -265 64l103 219 q64 -31 119 -31q61 0 93 32.5t32 92.5q0 46 -18 83.5t-47.5 64.5t-64.5 52t-70 52t-64.5 57.5t-47.5 75.5t-18 100q0 59 18.5 105t45.5 75t54 55.5t45.5 61.5t18.5 78q0 52 -30.5 87.5t-90.5 35.5q-153 0 -153 -223v-1102h-328z" />
<glyph unicode="&#xe0;" horiz-adv-x="1120" d="M39 307q0 178 134.5 274.5t385.5 96.5h125v39q0 94 -44 130t-155 36q-108 0 -282 -58l-74 217q215 82 408 82q244 0 353 -95t109 -290v-424q0 -61 15.5 -89t54.5 -42l-68 -215q-99 9 -164 42.5t-102 99.5q-57 -73 -144.5 -109.5t-189.5 -36.5q-167 0 -264.5 94.5 t-97.5 247.5zM258 1462l143 244l443 -295l-99 -166zM385 330q0 -63 31.5 -97t93.5 -34q110 0 174 118v175h-57q-131 0 -186.5 -40t-55.5 -122z" />
<glyph unicode="&#xe1;" horiz-adv-x="1120" d="M39 307q0 178 134.5 274.5t385.5 96.5h125v39q0 94 -44 130t-155 36q-108 0 -282 -58l-74 217q215 82 408 82q244 0 353 -95t109 -290v-424q0 -61 15.5 -89t54.5 -42l-68 -215q-99 9 -164 42.5t-102 99.5q-57 -73 -144.5 -109.5t-189.5 -36.5q-167 0 -264.5 94.5 t-97.5 247.5zM268 1411l443 295l143 -244l-485 -217zM385 330q0 -63 31.5 -97t93.5 -34q110 0 174 118v175h-57q-131 0 -186.5 -40t-55.5 -122z" />
<glyph unicode="&#xe2;" horiz-adv-x="1120" d="M39 307q0 178 134.5 274.5t385.5 96.5h125v39q0 94 -44 130t-155 36q-108 0 -282 -58l-74 217q215 82 408 82q244 0 353 -95t109 -290v-424q0 -61 15.5 -89t54.5 -42l-68 -215q-99 9 -164 42.5t-102 99.5q-57 -73 -144.5 -109.5t-189.5 -36.5q-167 0 -264.5 94.5 t-97.5 247.5zM170 1384l291 287h201l288 -287l-116 -133l-273 193l-272 -193zM385 330q0 -63 31.5 -97t93.5 -34q110 0 174 118v175h-57q-131 0 -186.5 -40t-55.5 -122z" />
<glyph unicode="&#xe3;" horiz-adv-x="1120" d="M39 307q0 178 134.5 274.5t385.5 96.5h125v39q0 94 -44 130t-155 36q-108 0 -282 -58l-74 217q215 82 408 82q244 0 353 -95t109 -290v-424q0 -61 15.5 -89t54.5 -42l-68 -215q-99 9 -164 42.5t-102 99.5q-57 -73 -144.5 -109.5t-189.5 -36.5q-167 0 -264.5 94.5 t-97.5 247.5zM176 1376q40 106 109 174t161 68q44 0 82 -14t59.5 -31t46 -31t44.5 -14q33 0 55 20.5t49 67.5l164 -78q-39 -106 -108 -175t-160 -69q-44 0 -82 14.5t-59.5 31.5t-46 31.5t-44.5 14.5q-34 0 -56 -20t-50 -68zM385 330q0 -63 31.5 -97t93.5 -34q110 0 174 118 v175h-57q-131 0 -186.5 -40t-55.5 -122z" />
<glyph unicode="&#xe4;" horiz-adv-x="1120" d="M39 307q0 178 134.5 274.5t385.5 96.5h125v39q0 94 -44 130t-155 36q-108 0 -282 -58l-74 217q215 82 408 82q244 0 353 -95t109 -290v-424q0 -61 15.5 -89t54.5 -42l-68 -215q-99 9 -164 42.5t-102 99.5q-57 -73 -144.5 -109.5t-189.5 -36.5q-167 0 -264.5 94.5 t-97.5 247.5zM156 1470q0 69 49.5 116.5t120.5 47.5q72 0 121 -47.5t49 -116.5q0 -70 -49 -117.5t-121 -47.5q-71 0 -120.5 47.5t-49.5 117.5zM385 330q0 -63 31.5 -97t93.5 -34q110 0 174 118v175h-57q-131 0 -186.5 -40t-55.5 -122zM633 1470q0 69 49.5 116.5t118.5 47.5 q72 0 121 -47.5t49 -116.5q0 -70 -49 -117.5t-121 -47.5q-70 0 -119 47.5t-49 117.5z" />
<glyph unicode="&#xe5;" horiz-adv-x="1120" d="M39 307q0 178 134.5 274.5t385.5 96.5h125v39q0 94 -44 130t-155 36q-108 0 -282 -58l-74 217q215 82 408 82q244 0 353 -95t109 -290v-424q0 -61 15.5 -89t54.5 -42l-68 -215q-99 9 -164 42.5t-102 99.5q-57 -73 -144.5 -109.5t-189.5 -36.5q-167 0 -264.5 94.5 t-97.5 247.5zM276 1503q0 113 78.5 192t206.5 79t207.5 -79t79.5 -192t-79.5 -192.5t-207.5 -79.5t-206.5 79.5t-78.5 192.5zM385 330q0 -63 31.5 -97t93.5 -34q110 0 174 118v175h-57q-131 0 -186.5 -40t-55.5 -122zM471 1503q0 -51 24.5 -76.5t65.5 -25.5q43 0 67.5 25.5 t24.5 76.5q0 50 -24.5 75.5t-67.5 25.5q-41 0 -65.5 -26t-24.5 -75z" />
<glyph unicode="&#xe6;" horiz-adv-x="1722" d="M39 311q0 173 134 266t386 93h125v47q0 93 -44 129.5t-155 36.5q-108 0 -282 -58l-74 217q215 82 408 82q234 0 329 -143q116 143 314 143q227 0 356 -147.5t129 -411.5q0 -53 -6 -102h-674q24 -248 250 -248q123 0 256 96l135 -196q-189 -150 -418 -150q-277 0 -405 174 q-60 -83 -160 -128.5t-219 -45.5q-179 0 -282 95.5t-103 250.5zM383 326q0 -127 129 -127q118 0 184 125q-12 74 -12 157h-35q-149 0 -207.5 -34.5t-58.5 -120.5zM985 653h358q-3 119 -44.5 179.5t-129.5 60.5q-161 0 -184 -240z" />
<glyph unicode="&#xe7;" horiz-adv-x="991" d="M63 537q0 170 64 302.5t187 208.5t288 76q213 0 373 -135l-141 -196q-99 79 -207 79t-163.5 -79t-55.5 -256q0 -172 55.5 -243t161.5 -71q52 0 97.5 18.5t104.5 61.5l148 -209q-146 -115 -326 -127v-65q105 -12 159 -65t54 -138q0 -105 -84.5 -171.5t-222.5 -66.5 q-139 0 -242 64l76 149q70 -34 131 -34q105 0 105 63q0 38 -44.5 53t-142.5 15l23 211q-190 42 -294 189t-104 366z" />
<glyph unicode="&#xe8;" horiz-adv-x="1134" d="M63 543q0 164 57.5 293.5t176 208.5t281.5 79q233 0 366 -148t133 -411q0 -67 -6 -116h-672q32 -246 244 -246q127 0 256 98l137 -186q-189 -150 -420 -150q-137 0 -243.5 42.5t-173.5 120t-101.5 182.5t-34.5 233zM281 1462l143 244l442 -295l-98 -166zM395 645h361 q-2 125 -42 192.5t-134 67.5q-165 0 -185 -260z" />
<glyph unicode="&#xe9;" horiz-adv-x="1134" d="M63 543q0 164 57.5 293.5t176 208.5t281.5 79q233 0 366 -148t133 -411q0 -67 -6 -116h-672q32 -246 244 -246q127 0 256 98l137 -186q-189 -150 -420 -150q-137 0 -243.5 42.5t-173.5 120t-101.5 182.5t-34.5 233zM291 1411l442 295l144 -244l-486 -217zM395 645h361 q-2 125 -42 192.5t-134 67.5q-165 0 -185 -260z" />
<glyph unicode="&#xea;" horiz-adv-x="1134" d="M63 543q0 164 57.5 293.5t176 208.5t281.5 79q233 0 366 -148t133 -411q0 -67 -6 -116h-672q32 -246 244 -246q127 0 256 98l137 -186q-189 -150 -420 -150q-137 0 -243.5 42.5t-173.5 120t-101.5 182.5t-34.5 233zM193 1384l290 287h201l289 -287l-117 -133l-272 193 l-273 -193zM395 645h361q-2 125 -42 192.5t-134 67.5q-165 0 -185 -260z" />
<glyph unicode="&#xeb;" horiz-adv-x="1134" d="M63 543q0 164 57.5 293.5t176 208.5t281.5 79q233 0 366 -148t133 -411q0 -67 -6 -116h-672q32 -246 244 -246q127 0 256 98l137 -186q-189 -150 -420 -150q-137 0 -243.5 42.5t-173.5 120t-101.5 182.5t-34.5 233zM174 1470q0 69 49.5 116.5t120.5 47.5q72 0 121 -47.5 t49 -116.5q0 -70 -49 -117.5t-121 -47.5q-71 0 -120.5 47.5t-49.5 117.5zM395 645h361q-2 125 -42 192.5t-134 67.5q-165 0 -185 -260zM651 1470q0 69 49.5 116.5t118.5 47.5q72 0 121 -47.5t49 -116.5q0 -70 -49 -117.5t-121 -47.5q-70 0 -119 47.5t-49 117.5z" />
<glyph unicode="&#xec;" horiz-adv-x="575" d="M-2 1462l143 244l443 -295l-99 -166zM123 0v1087h328v-1087h-328z" />
<glyph unicode="&#xed;" horiz-adv-x="575" d="M-2 1411l442 295l144 -244l-486 -217zM123 0v1087h328v-1087h-328z" />
<glyph unicode="&#xee;" horiz-adv-x="575" d="M-102 1384l290 287h201l289 -287l-117 -133l-272 193l-273 -193zM123 0v1087h328v-1087h-328z" />
<glyph unicode="&#xef;" horiz-adv-x="575" d="M-121 1470q0 69 49.5 116.5t120.5 47.5q72 0 121 -47.5t49 -116.5q0 -70 -49 -117.5t-121 -47.5q-71 0 -120.5 47.5t-49.5 117.5zM123 0v1087h328v-1087h-328zM356 1470q0 69 49.5 116.5t118.5 47.5q72 0 121 -47.5t49 -116.5q0 -70 -49 -117.5t-121 -47.5 q-70 0 -119 47.5t-49 117.5z" />
<glyph unicode="&#xf0;" horiz-adv-x="1183" d="M63 479q0 111 35.5 207t94 161t136 102.5t160.5 37.5q154 0 261 -86l6 2q-61 179 -203 287l-113 -115l-209 94l117 123q-98 32 -180 47l65 213q170 -25 295 -73l150 155l168 -145l-109 -111q375 -241 375 -811q0 -170 -61 -305t-183.5 -216t-287.5 -81q-147 0 -263 59.5 t-185 177.5t-69 277zM397 483q0 -280 187 -280q99 0 146.5 79t47.5 242q0 101 -2 148q-80 86 -196 86q-86 0 -134.5 -69.5t-48.5 -205.5z" />
<glyph unicode="&#xf1;" horiz-adv-x="1183" d="M127 0v1087h285l24 -124q142 161 336 161q144 0 219.5 -84.5t75.5 -240.5v-799h-328v748q0 73 -24 104t-76 31q-90 0 -184 -131v-752h-328zM240 1376q40 106 109 174t161 68q44 0 82 -14t59 -31t45.5 -31t44.5 -14q33 0 55.5 20.5t49.5 67.5l164 -78q-38 -106 -108 -175 t-161 -69q-44 0 -82 14.5t-59 31.5t-45.5 31.5t-44.5 14.5q-34 0 -57 -20.5t-50 -67.5z" />
<glyph unicode="&#xf2;" horiz-adv-x="1198" d="M63 545q0 262 144.5 420.5t392.5 158.5t391.5 -157t143.5 -420q0 -273 -142 -427.5t-393 -154.5q-253 0 -395 152.5t-142 427.5zM297 1462l143 244l443 -295l-99 -166zM403 545q0 -178 48 -259t149 -81q100 0 147.5 81.5t47.5 260.5q0 173 -48 254.5t-147 81.5 q-100 0 -148.5 -81.5t-48.5 -256.5z" />
<glyph unicode="&#xf3;" horiz-adv-x="1198" d="M63 545q0 262 144.5 420.5t392.5 158.5t391.5 -157t143.5 -420q0 -273 -142 -427.5t-393 -154.5q-253 0 -395 152.5t-142 427.5zM309 1411l443 295l143 -244l-485 -217zM403 545q0 -178 48 -259t149 -81q100 0 147.5 81.5t47.5 260.5q0 173 -48 254.5t-147 81.5 q-100 0 -148.5 -81.5t-48.5 -256.5z" />
<glyph unicode="&#xf4;" horiz-adv-x="1198" d="M63 545q0 262 144.5 420.5t392.5 158.5t391.5 -157t143.5 -420q0 -273 -142 -427.5t-393 -154.5q-253 0 -395 152.5t-142 427.5zM209 1384l291 287h200l289 -287l-117 -133l-272 193l-272 -193zM403 545q0 -178 48 -259t149 -81q100 0 147.5 81.5t47.5 260.5 q0 173 -48 254.5t-147 81.5q-100 0 -148.5 -81.5t-48.5 -256.5z" />
<glyph unicode="&#xf5;" horiz-adv-x="1198" d="M63 545q0 262 144.5 420.5t392.5 158.5t391.5 -157t143.5 -420q0 -273 -142 -427.5t-393 -154.5q-253 0 -395 152.5t-142 427.5zM215 1376q40 106 109 174t161 68q44 0 82 -14t59.5 -31t46 -31t44.5 -14q33 0 55 20.5t49 67.5l164 -78q-39 -106 -108 -175t-160 -69 q-44 0 -82 14.5t-59.5 31.5t-46 31.5t-44.5 14.5q-34 0 -56 -20t-50 -68zM403 545q0 -178 48 -259t149 -81q100 0 147.5 81.5t47.5 260.5q0 173 -48 254.5t-147 81.5q-100 0 -148.5 -81.5t-48.5 -256.5z" />
<glyph unicode="&#xf6;" horiz-adv-x="1198" d="M63 545q0 262 144.5 420.5t392.5 158.5t391.5 -157t143.5 -420q0 -273 -142 -427.5t-393 -154.5q-253 0 -395 152.5t-142 427.5zM190 1470q0 69 49.5 116.5t120.5 47.5q72 0 121 -47.5t49 -116.5q0 -70 -49 -117.5t-121 -47.5q-71 0 -120.5 47.5t-49.5 117.5zM403 545 q0 -178 48 -259t149 -81q100 0 147.5 81.5t47.5 260.5q0 173 -48 254.5t-147 81.5q-100 0 -148.5 -81.5t-48.5 -256.5zM668 1470q0 69 49.5 116.5t118.5 47.5q72 0 121 -47.5t49 -116.5q0 -70 -49 -117.5t-121 -47.5q-70 0 -119 47.5t-49 117.5z" />
<glyph unicode="&#xf7;" d="M86 526v252h893v-252h-893zM344 213q0 77 55 131.5t133 54.5q77 0 132 -55t55 -131t-55 -131t-132 -55q-78 0 -133 54.5t-55 131.5zM344 1092q0 77 55 131.5t133 54.5q77 0 132 -55t55 -131q0 -75 -55.5 -130t-131.5 -55q-78 0 -133 55t-55 130z" />
<glyph unicode="&#xf8;" horiz-adv-x="1198" d="M63 545q0 259 145 419t392 160q4 0 64 -6l75 240l240 -70l-82 -246q114 -72 176 -200.5t62 -294.5q0 -271 -142.5 -426.5t-392.5 -155.5q-43 0 -63 4l-78 -250l-238 70l80 252q-115 68 -176.5 197.5t-61.5 306.5zM397 545q0 -181 43 -254l191 590q-6 0 -19.5 1t-19.5 1 q-100 0 -147.5 -81t-47.5 -257zM573 207q6 0 17.5 -1t17.5 -1q99 0 146 81t47 261q0 166 -41 237z" />
<glyph unicode="&#xf9;" horiz-adv-x="1171" d="M117 303v784h327v-743q0 -64 20.5 -98.5t74.5 -34.5q104 0 178 113v763h327v-1087h-286l-15 127q-55 -78 -140 -120t-183 -42q-154 0 -228.5 88.5t-74.5 249.5zM274 1462l144 244l442 -295l-98 -166z" />
<glyph unicode="&#xfa;" horiz-adv-x="1171" d="M117 303v784h327v-743q0 -64 20.5 -98.5t74.5 -34.5q104 0 178 113v763h327v-1087h-286l-15 127q-55 -78 -140 -120t-183 -42q-154 0 -228.5 88.5t-74.5 249.5zM303 1411l442 295l144 -244l-486 -217z" />
<glyph unicode="&#xfb;" horiz-adv-x="1171" d="M117 303v784h327v-743q0 -64 20.5 -98.5t74.5 -34.5q104 0 178 113v763h327v-1087h-286l-15 127q-55 -78 -140 -120t-183 -42q-154 0 -228.5 88.5t-74.5 249.5zM190 1384l291 287h201l289 -287l-117 -133l-272 193l-273 -193z" />
<glyph unicode="&#xfc;" horiz-adv-x="1171" d="M117 303v784h327v-743q0 -64 20.5 -98.5t74.5 -34.5q104 0 178 113v763h327v-1087h-286l-15 127q-55 -78 -140 -120t-183 -42q-154 0 -228.5 88.5t-74.5 249.5zM174 1470q0 69 49.5 116.5t120.5 47.5q72 0 121 -47.5t49 -116.5q0 -70 -49 -117.5t-121 -47.5 q-71 0 -120.5 47.5t-49.5 117.5zM651 1470q0 69 49.5 116.5t118.5 47.5q72 0 121 -47.5t49 -116.5q0 -70 -49 -117.5t-121 -47.5q-70 0 -119 47.5t-49 117.5z" />
<glyph unicode="&#xfd;" d="M-12 1087h348l186 -862h8l205 862h338l-344 -1087q-66 -212 -215.5 -327t-398.5 -128l-37 232q157 20 232 68.5t118 154.5h-113zM258 1411l442 295l144 -244l-486 -217z" />
<glyph unicode="&#xfe;" horiz-adv-x="1220" d="M127 -455v1975l328 34v-577q50 68 126 107.5t158 39.5q209 0 310.5 -151t101.5 -426q0 -168 -51.5 -299.5t-150.5 -207t-230 -75.5q-164 0 -264 115v-500zM455 301q63 -96 161 -96q195 0 195 338q0 131 -21.5 207.5t-58.5 104.5t-96 28q-105 0 -180 -125v-457z" />
<glyph unicode="&#xff;" d="M-12 1087h348l186 -862h8l205 862h338l-344 -1087q-66 -212 -215.5 -327t-398.5 -128l-37 232q157 20 232 68.5t118 154.5h-113zM127 1470q0 69 49.5 116.5t120.5 47.5q72 0 121 -47.5t49 -116.5q0 -70 -49 -117.5t-121 -47.5q-71 0 -120.5 47.5t-49.5 117.5zM604 1470 q0 69 49.5 116.5t118.5 47.5q72 0 121 -47.5t49 -116.5q0 -70 -49 -117.5t-121 -47.5q-70 0 -119 47.5t-49 117.5z" />
<glyph unicode="&#x152;" horiz-adv-x="1912" d="M106 711q0 348 167.5 546.5t459.5 198.5q115 0 213 -37h895l-37 -241h-579q86 -140 100 -338h418v-242h-416q-19 -222 -106 -354h618v-244h-899q-96 -35 -207 -35q-295 0 -461 196t-166 550zM461 711q0 -261 69.5 -379.5t202.5 -118.5q145 0 205.5 114t60.5 384 q0 267 -63 381t-203 114q-134 0 -203 -117t-69 -378z" />
<glyph unicode="&#x153;" horiz-adv-x="1841" d="M63 545q0 261 143 420t386 159q239 0 364 -178q124 178 340 178q228 0 358 -148.5t130 -412.5q0 -16 -1 -32.5t-2.5 -37t-2.5 -32.5h-674q25 -248 248 -248q123 0 258 98l135 -196q-191 -150 -416 -150q-248 0 -381 164q-123 -164 -356 -164q-247 0 -388 153t-141 427z M403 545q0 -178 47.5 -258t147.5 -80t148.5 80.5t48.5 259.5q0 173 -49 254.5t-148 81.5t-147 -81.5t-48 -256.5zM1104 651h356q-2 119 -43 180.5t-131 61.5q-162 0 -182 -242z" />
<glyph unicode="&#x178;" horiz-adv-x="1218" d="M-16 1419h372l254 -612h8l256 612h361l-457 -887v-532h-340v530zM203 1716q0 67 50.5 115.5t119.5 48.5q72 0 121 -48t49 -116q0 -71 -49 -119.5t-121 -48.5q-70 0 -120 49t-50 119zM678 1716q0 67 50.5 115.5t119.5 48.5q72 0 121 -48t49 -116q0 -71 -49 -119.5 t-121 -48.5q-70 0 -120 49t-50 119z" />
<glyph unicode="&#x2c6;" horiz-adv-x="876" d="M49 1436l289 268h201l288 -268l-116 -133l-273 174l-272 -174z" />
<glyph unicode="&#x2dc;" horiz-adv-x="866" d="M49 1434q38 107 106.5 174t161.5 67q44 0 82 -13.5t59.5 -30.5t46 -30.5t44.5 -13.5q35 0 57 19.5t49 66.5l164 -78q-40 -106 -109 -172.5t-161 -66.5q-44 0 -82 13.5t-59.5 29.5t-46 29.5t-44.5 13.5q-33 0 -55 -19.5t-49 -66.5z" />
<glyph unicode="&#x2000;" horiz-adv-x="1026" />
<glyph unicode="&#x2001;" horiz-adv-x="2052" />
<glyph unicode="&#x2002;" horiz-adv-x="1026" />
<glyph unicode="&#x2003;" horiz-adv-x="2052" />
<glyph unicode="&#x2004;" horiz-adv-x="684" />
<glyph unicode="&#x2005;" horiz-adv-x="513" />
<glyph unicode="&#x2006;" horiz-adv-x="342" />
<glyph unicode="&#x2007;" horiz-adv-x="342" />
<glyph unicode="&#x2008;" horiz-adv-x="256" />
<glyph unicode="&#x2009;" horiz-adv-x="410" />
<glyph unicode="&#x200a;" horiz-adv-x="114" />
<glyph unicode="&#x2010;" horiz-adv-x="835" d="M90 514v254h655v-254h-655z" />
<glyph unicode="&#x2011;" horiz-adv-x="835" d="M90 514v254h655v-254h-655z" />
<glyph unicode="&#x2012;" horiz-adv-x="835" d="M90 514v254h655v-254h-655z" />
<glyph unicode="&#x2013;" horiz-adv-x="1064" d="M43 514v254h979v-254h-979z" />
<glyph unicode="&#x2014;" horiz-adv-x="1632" d="M43 514v254h1544v-254h-1544z" />
<glyph unicode="&#x2018;" horiz-adv-x="483" d="M63 1116q0 74 58 195l131 268h164l-80 -324q74 -54 74 -141q0 -69 -50.5 -116.5t-123.5 -47.5q-75 0 -124 47.5t-49 118.5z" />
<glyph unicode="&#x2019;" horiz-adv-x="483" d="M63 950l80 324q-71 51 -71 139q0 70 50 118t124 48t123 -48t49 -120q0 -66 -60 -192l-129 -269h-166z" />
<glyph unicode="&#x201a;" horiz-adv-x="483" d="M66 -336l79 324q-73 54 -73 141q0 69 51 116.5t125 47.5q73 0 122.5 -47.5t49.5 -118.5q0 -69 -60 -195l-129 -268h-165z" />
<glyph unicode="&#x201c;" horiz-adv-x="909" d="M63 1116q0 74 58 195l131 268h164l-80 -324q74 -54 74 -141q0 -69 -50.5 -116.5t-123.5 -47.5q-75 0 -124 47.5t-49 118.5zM487 1116q0 69 60 195l129 268h166l-80 -324q74 -57 74 -141q0 -69 -51.5 -116.5t-125.5 -47.5q-73 0 -122.5 47.5t-49.5 118.5z" />
<glyph unicode="&#x201d;" horiz-adv-x="909" d="M66 967l79 323q-73 50 -73 140q0 70 51 117.5t125 47.5t123 -48t49 -120q0 -66 -60 -192l-129 -268h-165zM492 967l79 323q-73 50 -73 140q0 70 50.5 117.5t123.5 47.5q75 0 124.5 -48t49.5 -120q0 -68 -62 -192l-129 -268h-163z" />
<glyph unicode="&#x201e;" horiz-adv-x="907" d="M66 -336l79 324q-73 54 -73 141q0 69 51 116.5t125 47.5q73 0 122.5 -47.5t49.5 -118.5q0 -69 -60 -195l-129 -268h-165zM489 -336l80 324q-71 54 -71 141q0 69 50.5 116.5t123.5 47.5t122.5 -47.5t49.5 -118.5q0 -69 -60 -195l-129 -268h-166z" />
<glyph unicode="&#x2022;" horiz-adv-x="765" d="M90 700q0 126 83.5 208.5t209.5 82.5t209.5 -83.5t83.5 -209.5t-83.5 -208t-209.5 -82t-209.5 83.5t-83.5 208.5z" />
<glyph unicode="&#x2026;" horiz-adv-x="1529" d="M70 152q0 76 55 131t131 55q78 0 132 -54.5t54 -131.5t-54 -132t-132 -55q-76 0 -131 55t-55 132zM578 152q0 76 55 131t131 55q78 0 132 -54.5t54 -131.5t-54 -132t-132 -55q-76 0 -131 55t-55 132zM1087 152q0 77 54.5 131.5t132.5 54.5t132 -54.5t54 -131.5t-54 -132 t-132 -55t-132.5 55t-54.5 132z" />
<glyph unicode="&#x202f;" horiz-adv-x="410" />
<glyph unicode="&#x2039;" horiz-adv-x="737" d="M74 483v207l389 451l201 -133l-263 -420l263 -422l-201 -133z" />
<glyph unicode="&#x203a;" horiz-adv-x="739" d="M74 166l262 422l-262 420l200 133l390 -451v-207l-390 -450z" />
<glyph unicode="&#x205f;" horiz-adv-x="513" />
<glyph unicode="&#x20ac;" horiz-adv-x="1208" d="M20 449l46 169h127v146h-168l43 170h151q57 228 210.5 353.5t375.5 125.5q211 0 377 -110l-123 -199q-112 74 -240 74q-106 0 -175.5 -58t-100.5 -186h477l-45 -170h-455v-146h424l-43 -169h-360q27 -130 95 -188t185 -58q159 0 299 94v-256q-158 -76 -323 -76 q-239 0 -387.5 125t-196.5 359h-193z" />
<glyph unicode="&#x2122;" horiz-adv-x="1837" d="M57 1231v188h729l-32 -188h-224v-625h-239v625h-234zM817 606l29 813h307l131 -483h10l109 483h321l29 -813h-229l-8 373q-2 113 12 231h-8l-138 -520h-186l-154 520h-8q1 -14 4.5 -60t5 -84t0.5 -87l-8 -373h-219z" />
<glyph unicode="&#x25fc;" horiz-adv-x="1085" d="M0 0v1085h1085v-1085h-1085z" />
<glyph unicode="&#xfb01;" horiz-adv-x="1226" d="M4 860v227h168v93q0 169 111.5 271.5t343.5 102.5q196 0 362 -81l-92 -209q-116 51 -219 51q-104 0 -141 -33t-37 -115v-80h602v-1087h-328v860h-274v-860h-328v860h-168z" />
<glyph unicode="&#xfb02;" horiz-adv-x="1296" d="M4 860v227h168v93q0 166 113 270t327 104q118 0 260 -38l261 36v-1245q0 -84 55 -84q20 0 55 13l62 -234q-98 -37 -207 -37q-135 0 -214 79.5t-79 229.5v1024q-79 21 -150 21q-90 0 -122.5 -35.5t-32.5 -116.5v-80h207l-35 -227h-172v-860h-328v860h-168z" />
</font>
</defs>
</svg>
